Der Geiger - Boss of Big Blocks (0) | Highspeed Download | Root Checker Pro APK Mod
 * Dettagli Torrent   globale  | Commenti (0) 


- Pocahontas (1995).H264.italian.english.Ac3-5.1.multisub-MIRCrew -


Download via torrent:
Categoria bittorrent BDRip
Descrizione
Pocahontas (1995).H264.italian.english.Ac3-5.1.multisub-MIRCrew


NO FOUND ONLY ORIGINAL RELEASE

My release is always in double track audio italian and Original audio
for select it use VLC or dvd player home
not use wmp

Pocahontas

(1995)









Paese di produzione Stati Uniti d'America
Anno 1995
Durata 78 min
Genere animazione, avventura, drammatico, sentimentale
Regia Mike Gabriel, Eric Goldberg
Soggetto Chris Buck
Sceneggiatura Carl Binder, Susannah Grant, Philip LaZebnik



*********************************



Ispirato alla vera storia della principessa indiana che visse tra il Cinquecento e il Seicento, giocando un ruolo importante per un breve periodo negli scambi tra la sua tribù indiana e i coloni (invasori?) inglesi, il film della Disney ovviamente se ne allontana per romanzare, per addolcire quando possibile, per evitare vari momenti e soluzioni spiacevoli che avrebbero potuto turbare i più piccoli



An English soldier and the daughter of an Algonquin chief share a romance when English colonists invade seventeenth-century Virginia. .









[spoiler]
General
Unique ID                                : 240271818626227981606289277652192785132 (0xB4C2AB45730939ECBD391DBDE140F2EC)
Complete name                            : Pocahontas (1995).h264.ita.eng.multisub-MIRCrew\Pocahontas (1995).h264.ita.eng.multisub-MIRCrew.mkv
Format                                   : Matroska
Format version                           : Version 2
File size                                : 1.18 GiB
Duration                                 : 1h 21mn
Overall bit rate                         : 2 078 Kbps
Movie name                               : MIRCrew
Encoded date                             : UTC 2018-09-02 12:39:21
Writing application                      : mkvmerge v5.4.0 ('Piper') built on Mar 10 2012 13:34:39
Writing library                          : Lavf54.63.100

Video
ID                                       : 1
Format                                   : AVC
Format/Info                              : Advanced Video Codec
Format profile                           : [email protected]
Format settings, CABAC                   : Yes
Format settings, ReFrames                : 2 frames
Codec ID                                 : V_MPEG4/ISO/AVC
Duration                                 : 1h 21mn
Bit rate                                 : 1 300 Kbps
Width                                    : 720 pixels
Height                                   : 400 pixels
Display aspect ratio                     : 16:9
Frame rate mode                          : Variable
Frame rate                               : 23.976 fps
Color space                              : YUV
Chroma subsampling                       : 4:2:0
Bit depth                                : 8 bits
Scan type                                : Progressive
Bits/(Pixel*Frame)                       : 0.188
Stream size                              : 736 MiB (61%)
Writing library                          : x264 core 130 r2273
Encoding settings                        : cabac=1 / ref=2 / deblock=1:0:0 / analyse=0x1:0x131 / me=hex / subme=7 / psy=1 / psy_rd=1.00:0.00 / mixed_ref=0 / me_range=16 / chroma_me=1 / trellis=1 / 8x8dct=0 / cqm=0 / deadzone=21,11 / fast_pskip=1 / chroma_qp_offset=-2 / threads=3 / lookahead_threads=1 / sliced_threads=0 / nr=0 / decimate=1 / interlaced=0 / bluray_compat=0 / constrained_intra=0 / bframes=3 / b_pyramid=0 / b_adapt=1 / b_bias=0 / direct=3 / weightb=1 / open_gop=0 / weightp=2 / keyint=230 / keyint_min=23 / scenecut=40 / intra_refresh=0 / rc_lookahead=40 / rc=abr / mbtree=1 / bitrate=1300 / ratetol=1.0 / qcomp=0.60 / qpmin=10 / qpmax=69 / qpstep=4 / vbv_maxrate=24000 / vbv_bufsize=24000 / nal_hrd=none / ip_ratio=1.40 / aq=1:1.00
Language                                 : Italian
Default                                  : Yes
Forced                                   : No

Audio #1
ID                                       : 2
Format                                   : AC-3
Format/Info                              : Audio Coding 3
Mode extension                           : CM (complete main)
Codec ID                                 : A_AC3
Duration                                 : 1h 21mn
Bit rate mode                            : Constant
Bit rate                                 : 384 Kbps
Channel(s)                               : 6 channels
Channel positions                        : Front: L C R, Side: L R, LFE
Sampling rate                            : 48.0 KHz
Bit depth                                : 16 bits
Compression mode                         : Lossy
Delay relative to video                  : -5ms
Stream size                              : 223 MiB (18%)
Title                                    : Ita Ac3 5.1
Language                                 : Italian
Default                                  : No
Forced                                   : No

Audio #2
ID                                       : 3
Format                                   : AC-3
Format/Info                              : Audio Coding 3
Mode extension                           : CM (complete main)
Codec ID                                 : A_AC3
Duration                                 : 1h 21mn
Bit rate mode                            : Constant
Bit rate                                 : 384 Kbps
Channel(s)                               : 6 channels
Channel positions                        : Front: L C R, Side: L R, LFE
Sampling rate                            : 48.0 KHz
Bit depth                                : 16 bits
Compression mode                         : Lossy
Delay relative to video                  : -5ms
Stream size                              : 223 MiB (18%)
Title                                    : Eng Ac3 5.1
Language                                 : English
Default                                  : No
Forced                                   : No

Menu
00:00:00.000                             : :Finishing the Fortress
00:03:59.906                             : :Off to the New World/The Virginia Company
00:05:29.496                             : :Governor Ratcliffe
00:07:41.169                             : :Opening Credits/Steady As a Beating Drum
00:10:50.316                             : ocahontas
00:12:38.466                             : ocahontas Tells Her Father About Her Dream
00:15:08.908                             : :Just Around the Riverbend
00:16:48.758                             : :Grandmother Willow
00:18:13.801                             : :Advice From Grandmother Willow/Listen With Your Heart
00:22:39.608                             : :The New World
00:25:01.417                             : owhatan's Council
00:28:51.438                             : igging for Gold/Mine, Mind, Mine
00:33:32.344                             : :John Smith Meets Pocahontas
00:35:59.783                             : :A Clash Between the Settlers and the Indians
00:39:19.857                             : :Getting to Know One Other
00:43:13.424                             : :Colors of the Wind
00:45:37.151                             : :In the Cornfield
00:48:03.047                             : :John Smith Meets Grandmother Willow
00:50:39.912                             : :The Warriors Arrive
00:54:07.953                             : ocahontas Runs Off to Meet John Smith
00:56:04.361                             : :The Final Meeting
01:01:50.373                             : ocahontas Visits the Prisoner/If I Never Knew You
01:06:25.315                             : :Savages
01:08:17.385                             : ocahontas Understands Her Dream
01:09:24.660                             : :Sunrise/Savages
01:10:30.017                             : ocahontas Saves John Smith
01:13:35.202                             : :The Departure/If I Never Knew You (Reprise)
01:15:37.658                             : :End Credits


[/spoiler]



Info: Per scaricare devi usare un client come uTorrent o Transmission
AnnounceURL
udp://tracker.coppersurfer.tk:6969/announce
Hash c0090ef7c9abc0dc0d8137f0d78a0a871b745d40
Peers seeds: 31 , leech: 9
Size 1.18 GB
Completato 646x
Aggiunto 13.09.18 - 16:09:05
Uploader   robbyrs
Votazione (Voti: 1)


Condividi questo bittorrent:


html/blog:


bbcode/forum:




Aggiungi Commento


counter