Les Dents de sabre | United States | Thám Tử Lừng Danh Conan chap 561
 * Dettagli Torrent   globale  | Commenti (0) 


- Pocahontas II - Viaggio Nel Nuovo Mondo (1998).H264.italian.english.Ac3-5.1.multisub-MIRCrew -


Download via torrent:
Categoria bittorrent BDRip
Descrizione
Pocahontas II - Journey to a New World - Viaggio Nel Nuovo Mondo 1998.H264.italian.english.Ac3-5.1.multisub-MIRCrew



NO FOUND ONLY ORIGINAL RELEASE

My release is always in double track audio italian and Original audio
for select it use VLC or dvd player home
not use wmp

Pocahontas II - Viaggio Nel Nuovo Mondo

Journey to a New World

1998









Titolo originale Pocahontas II: Journey to a New World
Lingua originale inglese
Paese di produzione Stati Uniti d'America
Anno 1998
Durata 70 min
Genere animazione
Regia Tom Ellery, Bradley Raymond



*********************************



Il film inizia con un flashback a Londra, con John Smith che cerca di sfuggire alle guardie inglesi che lo devono arrestare e decapitare per aver tradito il re Giacomo I nella missione in Virginia (in realtà, il colpevole è il Ratcliffe). Ma quando sta per cadere da un palazzo, compare il Governatore Ratcliffe che lo fa cadere nel Tamigi, ridendo, poiché orgoglioso di essere tornato in pista con il suo titolo, dopo aver accusato ingiustamente Smith, pensando ora di averlo ucciso.



When news of John Smith's death reaches America, Pocahontas is devastated. She sets off to London with John Rolfe, to meet with the King of England on a diplomatic mission: to create peace and respect between the two great lands. However, Governor Ratcliffe is still around; he wants to return to Jamestown and take over, no matter what the cost. He will stop at nothing to discredit the young princess.










[spoiler]
General
Unique ID                                : 207271592846527598212360417315140398136 (0x9BEF0E85C09072A4872E804F3F67EC3
Complete name                            : Pocahontas II Viaggio Nel Nuovo Mondo - Journey to a New World 1998.h264.ita.eng.multisub-MIRCrew\Pocahontas II Viaggio Nel Nuovo Mondo - Journey to a New World 1998.mkv
Format                                   : Matroska
Format version                           : Version 2
File size                                : 1.07 GiB
Duration                                 : 1h 13mn
Overall bit rate                         : 2 085 Kbps
Movie name                               : MIRCrew
Encoded date                             : UTC 2018-09-01T16:28:53Z
Writing application                      : mkvmerge v5.4.0 ('Piper') built on Mar 10 2012 13:34:39
Writing library                          : Lavf55.12.0

Video
ID                                       : 1
Format                                   : AVC
Format/Info                              : Advanced Video Codec
Format profile                           : [email protected]
Format settings, CABAC                   : Yes
Format settings, ReFrames                : 6 frames
Codec ID                                 : V_MPEG4/ISO/AVC
Duration                                 : 1h 13mn
Bit rate                                 : 1 300 Kbps
Width                                    : 720 pixels
Height                                   : 400 pixels
Display aspect ratio                     : 16:9
Frame rate mode                          : Variable
Frame rate                               : 23.976 fps
Color space                              : YUV
Chroma subsampling                       : 4:2:0
Bit depth                                : 8 bits
Scan type                                : Progressive
Bits/(Pixel*Frame)                       : 0.188
Stream size                              : 667 MiB (61%)
Writing library                          : x264 core 142 r2479 dd79a61
Encoding settings                        : cabac=1 / ref=6 / deblock=1:1:1 / analyse=0x3:0x113 / me=hex / subme=7 / psy=1 / psy_rd=0.40:0.00 / mixed_ref=1 / me_range=16 / chroma_me=1 / trellis=1 / 8x8dct=1 / cqm=0 / deadzone=21,11 / fast_pskip=1 / chroma_qp_offset=-2 / threads=3 / lookahead_threads=1 / sliced_threads=0 / nr=0 / decimate=1 / interlaced=0 / bluray_compat=0 / constrained_intra=0 / bframes=5 / b_pyramid=2 / b_adapt=1 / b_bias=0 / direct=1 / weightb=1 / open_gop=0 / weightp=2 / keyint=240 / keyint_min=24 / scenecut=40 / intra_refresh=0 / rc_lookahead=40 / rc=abr / mbtree=1 / bitrate=1300 / ratetol=1.0 / qcomp=0.60 / qpmin=0 / qpmax=69 / qpstep=4 / vbv_maxrate=62500 / vbv_bufsize=78125 / nal_hrd=none / filler=0 / ip_ratio=1.40 / aq=1:0.60
Language                                 : Italian
Default                                  : Yes
Forced                                   : No
Color primaries                          : BT.601-6 525, BT.1358 525, BT.1700 NTSC, SMPTE 170M
Transfer characteristics                 : BT.709-5, BT.1361
Matrix coefficients                      : BT.601-6 525, BT.1358 525, BT.1700 NTSC, SMPTE 170M

Audio #1
ID                                       : 2
Format                                   : AC-3
Format/Info                              : Audio Coding 3
Mode extension                           : CM (complete main)
Codec ID                                 : A_AC3
Duration                                 : 1h 13mn
Bit rate mode                            : Constant
Bit rate                                 : 384 Kbps
Channel(s)                               : 6 channels
Channel positions                        : Front: L C R, Side: L R, LFE
Sampling rate                            : 48.0 KHz
Bit depth                                : 16 bits
Compression mode                         : Lossy
Delay relative to video                  : -5ms
Stream size                              : 201 MiB (18%)
Title                                    : ita Ac3 5.1
Language                                 : Italian
Default                                  : Yes
Forced                                   : No

Audio #2
ID                                       : 3
Format                                   : AC-3
Format/Info                              : Audio Coding 3
Mode extension                           : CM (complete main)
Codec ID                                 : A_AC3
Duration                                 : 1h 13mn
Bit rate mode                            : Constant
Bit rate                                 : 384 Kbps
Channel(s)                               : 6 channels
Channel positions                        : Front: L C R, Side: L R, LFE
Sampling rate                            : 48.0 KHz
Bit depth                                : 16 bits
Compression mode                         : Lossy
Delay relative to video                  : -5ms
Stream size                              : 201 MiB (18%)
Title                                    : eng Ac3 5.1
Language                                 : English
Default                                  : No
Forced                                   : No


[/spoiler]



Info: Per scaricare devi usare un client come uTorrent o Transmission
AnnounceURL
udp://tracker.coppersurfer.tk:6969/announce
Hash 018813a23fad1dfbfe284d53cce85e61ae50023e
Peers seeds: 33 , leech: 8
Size 1.07 GB
Completato 606x
Aggiunto 13.09.18 - 17:09:01
Uploader   robbyrs
Votazione (Voti: 1)


Condividi questo bittorrent:


html/blog:


bbcode/forum:




Aggiungi Commento


counter